Image

TEAM FFR Movies Collection

User avatar
Punisher
Elite Member
Posts: 428
Joined: Wed Sep 27, 2017 9:23 pm
Location: Netherlands
Been thanked: 32 times

Re: TEAM FFR Movies Collection

Post by Punisher » Mon Oct 02, 2017 11:28 pm


User avatar
Punisher
Elite Member
Posts: 428
Joined: Wed Sep 27, 2017 9:23 pm
Location: Netherlands
Been thanked: 32 times

Re: TEAM FFR Movies Collection

Post by Punisher » Mon Oct 02, 2017 11:33 pm



User avatar
Ranvijay Invincible
Junkie
Posts: 43
Joined: Wed Sep 27, 2017 10:55 am
Been thanked: 10 times

War for the Planet of the Apes (2017) 720p HC HDRip Hindi (Cleaned) English x264 - LOKI - M2Tv

Post by Ranvijay Invincible » Tue Oct 03, 2017 12:01 am

Image

War for the Planet of the Apes (2017) 720p HC HDRip Hindi (Cleaned) English x264 - LOKI - M2Tv

---[General]---

Size............: 1.26 GB
Duration........: 02:18:50
Chapters........: NA
Source..........: EVO (thanks!)
Encod3R.........: LOKI @ M2Tv

---[Video]---

Codec...........: AVC
Profile.........: High@L4.1
Resolution......: 1280 x 720
Bitrate.........: 1014 Kbps
Framerate.......: 23.976 fps

---[Audio ]---

Format..........: AAC
Channels........: 2
Bitrate.........: 192 Kbps
Language(s).....: Hindi

---[Audio ]---

Format..........: AAC
Channels........: 2
Bitrate.........: 92 Kbps
Language(s).....: English

---[Subtitle ]---

Format..........: Hardcoded
Language(s).....: Korean + English


Image
Image
Image
Image

https://usersfiles.com/xawxxisuxug5
https://bdupload.info/6wmpk3tpmnvo
http://uptobox.com/b8acwepap5sx
https://downace.com/szS0
http://go4up.com/dl/084be1cd25d74f
https://mirrorace.com/m/j3pu
https://upload.mn/zjumr1y5i7cc
https://www.multiup.org/download/743899 ... FPALOK.mkv
https://userscloud.com/x81sbta7ik8p
https://clicknupload.org/bclvlhmvkym6


Image
Don't walk as you are king, walk as you don't care who the king is....!!
Never argue with an idiot. They drag you down to their level and then beat you with experience?
Image
Don't walk as you are king, walk as you don't care who the king is....!!

User avatar
Ranvijay Invincible
Junkie
Posts: 43
Joined: Wed Sep 27, 2017 10:55 am
Been thanked: 10 times

Tubelight (2017) 1CD HDRip - x264 AAC - ESub - DUS

Post by Ranvijay Invincible » Tue Oct 03, 2017 1:23 am

Image

Tubelight (2017) 1CD HDRip - x264 AAC - ESub - DUS

Year.............: 2017
Ripper...........: Apka Sallu
Source...........: DDR ka warehouse (thanks bhai, you are the King)
Container........: MKV
Resolution.......: 640 x 272
Overall Bitrate..: 748 Kbps
Audio Language...: Hindi
Run Time.........: 02hrs 09Mnts and few seconds
Subtitle.........: English
Audio............: AAC @ 64 Kbps
Frame rate.......: 23.976 fps


Image
Image
Image

http://www.indishare.me/oos6v0e14m0w
https://bdupload.info/nljvmservlxg
http://uptobox.com/5q66v8bcffkl
https://filescdn.com/5qcs2mb3mlqq
https://clicknupload.org/w3ebfn7kfrva
https://userscloud.com/7yywy40d09fq
http://usersfiles.com/7t4n7lsf0sul
https://www.multiup.org/download/2480b1 ... _-_DUS.mkv
https://openload.co/f/vMcIFgI4B0s/Tubel ... _-_DUS.mkv
http://filerio.in/64q3lwatzyaq
https://tusfiles.net/295bwte5b6vf
http://watchvideo.us/bf6b67rwwb73.html
http://go4up.com/dl/98a0d1b9c2dd0b
http://jheberg.net/download/tubelight-2 ... -esub-dus/
https://9xupload.me/c9w8npy9twni
https://uploadx.link/kuom81xkfq8f
https://downace.com/oo9H
https://www.flashx.tv/ltf269yndlxf.html
https://mirrorace.com/m/j3zP
https://upload.mn/o8v9bxsbgyrx


Image
Don't walk as you are king, walk as you don't care who the king is....!!
Never argue with an idiot. They drag you down to their level and then beat you with experience?
Last edited by Ranvijay Invincible on Tue Oct 03, 2017 9:49 am, edited 1 time in total.
Image
Don't walk as you are king, walk as you don't care who the king is....!!

User avatar
Ranvijay Invincible
Junkie
Posts: 43
Joined: Wed Sep 27, 2017 10:55 am
Been thanked: 10 times

Tubelight (2017) [Hindi] 1CD HD-Rip x264 AC-3 - Team Telly Exclusive

Post by Ranvijay Invincible » Tue Oct 03, 2017 1:44 am

Image
Image

Tubelight (2017) [Hindi] 1CD HD-Rip x264 AC-3 - Team Telly Exclusive

Format : Matroska
Format version : Version 4 / Version 2
File size : 697 MiB
Duration : 2h 10mn
Overall bit rate mode : Variable
Overall bit rate : 750 Kbps

Video
Format : AVC
Format/Info : Advanced Video Codec
Format profile : High@L4.1
Format settings, CABAC : Yes
Format settings, ReFrames : 4 frames
Codec ID : V_MPEG4/ISO/AVC
Duration : 2h 10mn
Bit rate mode : Variable
Bit rate : 684 Kbps
Maximum bit rate : 40.0 Mbps
Width : 720 pixels
Height : 304 pixels
Display aspect ratio : 2.35:1
Frame rate mode : Constant
Frame rate : 29.674 fps
Color space : YUV
Chroma subsampling : 4:2:0
Bit depth : 8 bits
Scan type : Progressive
Bits/(Pixel*Frame) : 0.105
Stream size : 624 MiB (89%)
Writing library : x264
Default : Yes
Forced : No
Color primaries : Generic film
Transfer characteristics : BT.709
Matrix coefficients : BT.709

Audio
Format : AC-3
Format/Info : Audio Coding 3
Bit rate : 64.0 Kbps
Channel(s) : 2 channels
Channel positions : Front: L R
Sampling rate : 48.0 KHz


Image
Image
Image
Image

http://www.indishare.me/8pfwtsby8a3z
http://uptobox.com/r9hmsxg9ijgr
https://filescdn.com/4wtjuuqbb9nc
https://bdupload.info/vwkaidobmkqx
https://clicknupload.org/gnhgef4n1551
https://userscloud.com/yodnq4wpmdax
http://usersfiles.com/c33wd2j9g1r2
https://www.multiup.org/download/4fbca6 ... lusive.mkv
https://openload.co/f/r_o58Lt17p8/Tubel ... lusive.mkv
http://filerio.in/3xj99tif8y74
https://tusfiles.net/r8xwzlnozqrt
http://watchvideo.us/3s4ppftduzdx.html
http://go4up.com/dl/8f352d47bf9e40
http://jheberg.net/download/tubelight-2 ... -team-tel/
https://9xupload.me/p5iqgwrzc4b1
https://uploadx.link/67jngksv46si
https://downace.com/kc2p
https://www.flashx.tv/epffr0ahyiwd.html
https://mirrorace.com/m/6t95
https://upload.mn/cfiicgr9agcc


Image
Don't walk as you are king, walk as you don't care who the king is....!!
Never argue with an idiot. They drag you down to their level and then beat you with experience?
Image
Don't walk as you are king, walk as you don't care who the king is....!!

User avatar
Ranvijay Invincible
Junkie
Posts: 43
Joined: Wed Sep 27, 2017 10:55 am
Been thanked: 10 times

The Emoji Movie 2017 HC HDRIP x264 AC3 TiTAN

Post by Ranvijay Invincible » Tue Oct 03, 2017 1:56 am

Image

The Emoji Movie 2017 HC HDRIP x264 AC3 TiTAN
General

Format : Matroska
Format version : Version 2
File size : 1.43 GiB
Duration : 1h 20mn
Overall bit rate mode : Variable
Overall bit rate : 2 544 Kbps

Video
ID : 1
Format : AVC
Format/Info : Advanced Video Codec
Format profile : High@L4.1
Format settings, CABAC : Yes
Format settings, ReFrames : 3 frames
Codec ID : V_MPEG4/ISO/AVC
Duration : 1h 20mn
Bit rate mode : Variable
Bit rate : 2 350 Kbps
Maximum bit rate : 40.0 Mbps
Width : 720 pixels
Height : 400 pixels
Display aspect ratio : 16:9
Frame rate mode : Constant
Frame rate : 30.000 fps
Color space : YUV
Chroma subsampling : 4:2:0
Bit depth : 8 bits
Scan type : Progressive
Bits/(Pixel*Frame) : 0.272
Stream size : 1.29 GiB (90%)
Default : Yes
Forced : No
Color primaries : BT.709
Transfer characteristics : BT.709
Matrix coefficients : BT.709

Audio
ID : 2
Format : AC-3
Format/Info : Audio Coding 3
Mode extension : CM (complete main)
Format settings, Endianness : Big
Codec ID : A_AC3
Duration : 1h 20mn
Bit rate mode : Constant
Bit rate : 192 Kbps
Channel(s) : 2 channels
Channel positions : Front: L R
Sampling rate : 48.0 KHz
Bit depth : 16 bits
Compression mode : Lossy
Stream size : 111 MiB (8%)
Language : English
Default : Yes
Forced : No
Image
Image
Image
Image
Image

http://www.indishare.me/h4qp2deifbsu
http://uptobox.com/io4la9h3ijlv
https://filescdn.com/zpcp6itpbh5s
https://bdupload.info/jhpj5bvwy0p0
https://clicknupload.org/xqhxjvaxblin
https://userscloud.com/ynq6o1vn5obs
http://usersfiles.com/xd4c2mexj6au
https://www.multiup.org/download/51c5fd ... _TiTAN.mkv
https://openload.co/f/nixGPeIaPtQ/The_E ... _TiTAN.mkv
http://filerio.in/05a1imtp5e49
https://tusfiles.net/ycz7o7xun8ea
http://watchvideo.us/562vfjwf86o1.html
http://go4up.com/dl/30d6374249fc37
http://jheberg.net/download/the-emoji-m ... ac3-titan/
https://uploadx.link/3ayfh32lr4fj
https://downace.com/oobR
https://www.flashx.tv/kr3k0ookykhw.html
https://mirrorace.com/m/6t9c


Image
Don't walk as you are king, walk as you don't care who the king is....!!
Never argue with an idiot. They drag you down to their level and then beat you with experience?
Image
Don't walk as you are king, walk as you don't care who the king is....!!

User avatar
Ranvijay Invincible
Junkie
Posts: 43
Joined: Wed Sep 27, 2017 10:55 am
Been thanked: 10 times

Tubelight (2017) 1-3 HD Rip - x264 AC3 5.1 ESub - DUS

Post by Ranvijay Invincible » Tue Oct 03, 2017 2:03 am

Image

Tubelight (2017) 1-3 HD Rip - x264 AC3 5.1 ESub - DUS
Format : Matroska
Format version : Version 2
File size : 1.44 GiB
Duration : 2 h 9 min
Overall bit rate : 1 590 kb/s
Encoded date : UTC 2017-10-02 19:52:40
Writing application : mkvmerge v7.0.0 ('Where We Going') 32bit built on Jun 9 2014 15:08:34
Writing library : libebml v1.3.0 + libmatroska v1.4.1

Video
ID : 1
Format : AVC
Format/Info : Advanced Video Codec
Format profile : High@L3
Format settings : CABAC / 4 Ref Frames
Format settings, CABAC : Yes
Format settings, RefFrames : 4 frames
Codec ID : V_MPEG4/ISO/AVC
Duration : 2 h 9 min
Bit rate : 1 208 kb/s
Width : 720 pixels
Height : 304 pixels
Display aspect ratio : 2.35:1
Frame rate mode : Constant
Frame rate : 25.000 FPS
Color space : YUV
Chroma subsampling : 4:2:0
Bit depth : 8 bits
Scan type : Progressive
Bits/(Pixel*Frame) : 0.221
Stream size : 1.09 GiB (76%)
Default : Yes
Forced : No

Audio
ID : 2
Format : AC-3
Format/Info : Audio Coding 3
Format settings, Endianness : Big
Codec ID : A_AC3
Duration : 2 h 9 min
Bit rate mode : Constant
Bit rate : 384 kb/s
Channel(s) : 6 channels
Channel positions : Front: L C R, Side: L R, LFE
Sampling rate : 48.0 kHz
Frame rate : 31.250 FPS (1536 SPF)
Bit depth : 16 bits
Compression mode : Lossy
Delay relative to video : 300 ms
Stream size : 357 MiB (24%)
Language : Hindi
Service kind : Complete Main
Default : Yes
Forced : No

Text
ID : 3
Format : UTF-8
Codec ID : S_TEXT/UTF8
Codec ID/Info : UTF-8 Plain Text
Duration : 2 h 3 min
Bit rate : 33 b/s
Count of elements : 1080
Stream size : 30.1 KiB (0%)
Language : English
Default : Yes
Forced : No
Image
Image
Image
Image

http://www.indishare.me/252kprsv3981
http://uptobox.com/9rx8l1ddtvv5
https://bdupload.info/yaexs3ezqbxj
https://clicknupload.org/l6vki8zo38gr
https://userscloud.com/e9n87gl02884
http://usersfiles.com/noqnz7w8yuip
https://www.multiup.org/download/bf914a ... _-_DUS.mkv
https://openload.co/f/kmJQQKe9mIs/Tubel ... _-_DUS.mkv
http://filerio.in/xafmv3j8bu1m
https://tusfiles.net/5zx8l2agkfnz
http://watchvideo.us/fqz7r15mxtav.html
http://go4up.com/dl/d1cfdc4d46adfb
http://jheberg.net/download/tubelight-2 ... -esub-dus/
https://uploadx.link/rzy29ul7j98h
https://downace.com/kc3f
https://www.flashx.tv/2a4encmr6etl.html
https://mirrorace.com/m/6t9j


Image
Don't walk as you are king, walk as you don't care who the king is....!!
Never argue with an idiot. They drag you down to their level and then beat you with experience?
Image
Don't walk as you are king, walk as you don't care who the king is....!!

User avatar
Ranvijay Invincible
Junkie
Posts: 43
Joined: Wed Sep 27, 2017 10:55 am
Been thanked: 10 times

Tubelight (2017) 720p HDRip - x264 AC3 5.1 - ESub - DUS

Post by Ranvijay Invincible » Tue Oct 03, 2017 9:33 am

Image

Tubelight (2017) 720p HDRip - x264 AC3 5.1 - ESub - DUS

Year.............: 2017
Ripper...........: Apka Sallu
Source...........: DDR ka warehouse (thanks bhai, you are the King)
Container........: MKV
Resolution.......: 1288 x 544
Overall Bitrate..: 3295 Kbps
Audio Language...: Hindi
Run Time.........: 02hrs 09Mnts and few seconds
Subtitle.........: English
Audio............: AC3 5.1 @ 384 Kbps (UpMix)
Frame rate.......: 25 fps


Image
Image
Image

http://uptobox.com/jgdwn189far0
https://filescdn.com/r8jqs5gklmrf
https://userscloud.com/bef7vaf7l01i
http://usersfiles.com/vnqqnnp1uvqo
https://www.multiup.org/download/0de4d9 ... _-_DUS.mkv
https://openload.co/f/ygX-I4xDb4k/Tubel ... _-_DUS.mkv
http://filerio.in/o9cga24u7fw4
https://tusfiles.net/602dohw59di4
http://watchvideo.us/0mxgih64yhpf.html

SAMPLE
Last edited by Ranvijay Invincible on Tue Oct 03, 2017 9:51 am, edited 1 time in total.
Image
Don't walk as you are king, walk as you don't care who the king is....!!

User avatar
Ranvijay Invincible
Junkie
Posts: 43
Joined: Wed Sep 27, 2017 10:55 am
Been thanked: 10 times

Spider-Man Homecoming 2017 1080p BluRay x264-SPARKS

Post by Ranvijay Invincible » Tue Oct 03, 2017 9:44 am

Image

Spider-Man Homecoming 2017 1080p BluRay x264-SPARKS
Release.Date: 02.10.2017
Video: X264 9045Kbps
Frame.Rate: 23.976
Resolution: 1920x808
Audio: DTS 1509Kbps 6ch
Language: English
Length: 2h 14mn
Source: Retail BluRay
Size: 10076MB
Subtitles: English forced, English, English SDH
IMDb: http://www.imdb.com/title/tt2250912
Image
Image
Image

http://uptobox.com/i96elwf5m333
http://uptobox.com/i96elwf5m333
https://filescdn.com/2iricj74atrj
https://userscloud.com/he1p2oxngexj
https://www.multiup.org/download/9aecb0 ... sparks.mkv
Image
Don't walk as you are king, walk as you don't care who the king is....!!

Post Reply