Image

TEAM FFR Movies Collection

User avatar
Ranvijay Invincible
Junkie
Posts: 43
Joined: Wed Sep 27, 2017 10:55 am
Been thanked: 9 times

TEAM FFR Movies Collection

Post by Ranvijay Invincible » Thu Sep 28, 2017 8:15 am

Request Your Bollywood,HollyWood And Dual Audio Movie Here.
Image
Don't walk as you are king, walk as you don't care who the king is....!!

deep.01
Newbie
Posts: 3
Joined: Wed Sep 27, 2017 5:52 pm

Re: TEAM FFR Movies Collection

Post by deep.01 » Thu Sep 28, 2017 9:12 am

Please upload Newton movie.

MosirKhan
Newbie
Posts: 4
Joined: Wed Sep 27, 2017 8:33 pm
Location: Indian

Re: TEAM FFR Movies Collection

Post by MosirKhan » Thu Sep 28, 2017 9:58 am

please upload shubh mangal savdhan Best rip available 720p
Image

terminator
Newbie
Posts: 3
Joined: Wed Sep 27, 2017 11:11 am

Movie Request

Post by terminator » Thu Sep 28, 2017 11:16 am

Plz upload Suhaag (1994) movie in 720p HD

taqs19
Newbie
Posts: 1
Joined: Wed Sep 27, 2017 4:08 pm
Has thanked: 1 time

Re: TEAM FFR Movies Collection

Post by taqs19 » Thu Sep 28, 2017 12:19 pm

Please upload : noem my skollie (2016)
http://www.imdb.com/title/tt4567500/?ref_=nv_sr_1

Thank You

pankmohan
Newbie
Posts: 1
Joined: Thu Sep 28, 2017 1:50 pm
Has thanked: 1 time

Re: TEAM FFR Movies Collection

Post by pankmohan » Thu Sep 28, 2017 1:55 pm

Wow great welcome back

bahubali
Newbie
Posts: 2
Joined: Wed Sep 27, 2017 10:44 am
Has thanked: 1 time

Re: TEAM FFR Movies Collection

Post by bahubali » Thu Sep 28, 2017 5:16 pm

secret ballot 2001 movie with english sub

User avatar
Punisher
Elite Member
Posts: 396
Joined: Wed Sep 27, 2017 9:23 pm
Location: Netherlands
Been thanked: 29 times

Re: TEAM FFR Movies Collection

Post by Punisher » Thu Sep 28, 2017 10:19 pm

bahubali wrote:
Thu Sep 28, 2017 5:16 pm
secret ballot 2001 movie with english sub
Secret Ballot (2001) directed by Babak Payami (Farsi with ENG hardsubs)
Image

Secret Ballot (2001) directed by Babak Payami (Farsi with ENG hardsubs).avi - 1020.2 MB
Secret Ballot (2001) directed by Babak Payami (Farsi with ENG hardsubs).avi - 1020.2 MB

deep.01
Newbie
Posts: 3
Joined: Wed Sep 27, 2017 5:52 pm

Re: TEAM FFR Movies Collection

Post by deep.01 » Fri Sep 29, 2017 11:57 am

Please Upload Newton Movie

User avatar
Ranvijay Invincible
Junkie
Posts: 43
Joined: Wed Sep 27, 2017 10:55 am
Been thanked: 9 times

Tubelight (2017) 1080p WEB-DL H264 AAC2.0 ESub-DDR - 8.34 GB

Post by Ranvijay Invincible » Mon Oct 02, 2017 10:22 pm

Image
Image

Tubelight (2017) 1080p WEB-DL H264 AAC2.0 ESub-DDR - 8.34 GB
General
Complete name : Tubelight (2017) 1080p WEB-DL H264 AAC2.0 ESub-DDR.mp4
Format : MPEG-4
Format profile : Base Media
Codec ID : isom (isom/iso2/avc1/mp41)
File size : 8.35 GiB
Duration : 2 h 9 min
Overall bit rate mode : Constant
Overall bit rate : 9 199 kb/s
Writing application : Lavf54.63.104

Video
ID : 1
Format : AVC
Format/Info : Advanced Video Codec
Format profile : High@L4
Format settings : CABAC / 2 Ref Frames
Format settings, CABAC : Yes
Format settings, RefFrames : 2 frames
Codec ID : avc1
Codec ID/Info : Advanced Video Coding
Duration : 2 h 9 min
Bit rate mode : Constant
Bit rate : 9 000 kb/s
Width : 1 920 pixels
Height : 1 080 pixels
Display aspect ratio : 16:9
Frame rate mode : Variable
Frame rate : 29.970 (30000/1001) FPS
Minimum frame rate : 29.970 FPS
Maximum frame rate : 30.000 FPS
Color space : YUV
Chroma subsampling : 4:2:0
Bit depth : 8 bits
Scan type : Progressive
Bits/(Pixel*Frame) : 0.145
Stream size : 8.13 GiB (97%)
Color range : Limited
Matrix coefficients : BT.709

Audio
ID : 2
Format : AAC
Format/Info : Advanced Audio Codec
Format profile : LC
Codec ID : mp4a-40-2
Duration : 2 h 9 min
Bit rate mode : Constant
Bit rate : 225 kb/s
Channel(s) : 2 channels
Channel positions : Front: L R
Sampling rate : 48.0 kHz
Frame rate : 46.875 FPS (1024 SPF)
Compression mode : Lossy
Stream size : 210 MiB (2%)
Language : Hindi
Default : Yes
Image

Image
Image
Image

https://userscloud.com/f32d26mobmxs
https://drive.google.com/open?id=0B8H7g ... nU1R1ptLTg
http://uptobox.com/7drlpmnnhl86
http://uptobox.com/gvonud1zvniu
https://www.multiup.org/download/f8741d ... ub-DDR.mp4
https://openload.co/f/1vg-8mAefGI/Tubel ... ub-DDR.mp4
http://filerio.in/gxhsik1u14ev


Image
Don't walk as you are king, walk as you don't care who the king is....!!
Never argue with an idiot. They drag you down to their level and then beat you with experience?
Image
Don't walk as you are king, walk as you don't care who the king is....!!

Post Reply